MejorTorrent : variados extend
Inicio   -   Ayuda   -   Contacto   -   últimos Torrents

Torrents
Documentales842
Películas11256
Películas HD2068
Series1961
  Episodios22513
Series HD244
  Episodios2743
Juegos2689
  PC1736
Variados1521
  Deportes36
  Programas592
  Videoclips102
  Otros722
Música MP3 3525
Total Torrents57258

Información
Esta web no contiene ningún tipo de fichero almacenado.

Todos los archivos se comparten mediante el BitTorrent, un programa P2P de intercambio entre usuarios.



Descarga la última versión de uTorrent y baja a la máxima velocidad:
Fun - Some Nights
Total Descargas:  1.090 En Agosto:  1.090

Fecha:  2016-10-24



Torrent:      Descargar         Tamaño:  55,16 MB
Descripción:

General Complete name : Fun - Some Nights (1080p) x264 [VX]
[P2PDL].mp4 Format : MPEG-4 Format profile : Base Media / Version 2 File
size : 51.6 MiB Duration : 5mn 39s Overall bit rate mode : Variable Overall
bit rate : 1 273 Kbps Video ID : 1 Format : AVC Format/Info : Advanced
Video Codec Duration : 5mn 39s Bit rate mode : Variable Bit rate : 1 138
Kbps Width : 1 916 pixels Height : 780 pixels Display aspect ratio : 2.456
Frame rate mode : Variable Frame rate : 23.976 fps Bit depth : 8 bits Scan
type : Progressive Stream size : 46.2 MiB (90%) Writing library : x264 core
125 Audio ID : 2 Format : AAC Format/Info : Advanced Audio Codec
Format profile : LC Duration : 5mn 39s Bit rate mode : Variable Bit rate :
127 Kbps Maximum bit rate : 208 Kbps Channel(s) : 2 channels Channel
positions : Front: L R Sampling rate : 48.0 KHz Stream size : 5.15 MiB (10%)



Volver al índice de Variados







Datos legales


DMCA.com Protection Status
12:22:13
computer